Reply to topic
DL-List and Torrent activity [Update пиров]
Size:  393 MB   |    Registered:  4 years 10 months   |    Completed:  0 times
Seeders:  784  [  0 KB/s  ]   Leechers:  8  [  0 KB/s  ]  
 
     
 
 
Author Message

RelizMAN ®

11

Post 31-Oct-2015 16:25

[Quote]

.
.
Daniel O'Donnell
Songs Of Inspiration
.Жанр: Pop, Country, Vocals
Носитель: CD
Страна-производитель диска (релиза): UK & Ireland
Год издания: 1996
Издатель (лейбл): Ritz Records
Номер по каталогу: RITZ BLC 709
Страна исполнителя (группы): Ireland
Аудиокодек: FLAC (*.flac)
Тип рипа: tracks+.cue
Битрейт аудио: lossless
Продолжительность: 01:07:42
Источник (релизер): stas64
Наличие сканов в содержимом раздачи: да - 600 dpi

Треклист:

01. Footsteps.
02. It Is No Secret.
03. You Needed Me.
04. I Saw the Light.
05. One Day at a Time.
06. My Forever Friend.
07. When I Had You.
08. You'll Never Walk Alone.
09. What a Friend We Have in Jesus.
10. Why Me Lord.
11. The Old Rugged Cross.
12. Yes I Really Love You.
13. How Great Thou Art.
14. This World Is Not My Home.
15. He Took You Place.
16. Amazing Grace.
17. The Family Bible.
18. In the Garden.
19. Children's Band.
20. Standing Room Only.

Лог создания рипа

Exact Audio Copy V1.0 beta 3 from 29. August 2011
Отчёт EAC об извлечении, выполненном 27. октября 2015, 8:55
Daniel O'Donnell / Songs of Inspiration
Дисковод: DVDRW DRW-6S160P Adapter: 7 ID: 0
Режим чтения : ДостоверностьИспользование точного потока : ДаОтключение кэша аудио : ДаИспользование указателей C2 : Нет
Коррекция смещения при чтении : 6Способность читать области Lead-in и Lead-out : НетЗаполнение пропущенных сэмплов тишиной : ДаУдаление блоков с тишиной в начале и конце : НетПри вычислениях CRC использовались нулевые сэмплы : ДаИнтерфейс : Установленный внешний ASPI-интерфейсОбработка зазоров : Добавлено к предыдущему треку
Выходной формат : Пользовательский кодировщикВыбранный битрейт : 128 kBit/sКачество : ВысокийДобавление ID3-тега : НетУтилита сжатия : C:\Program Files\Exact Audio Copy\FLAC\FLAC.EXEДополнительные параметры : -V -8 -T "Genre=%genre%" -T "Artist=%artist%" -T "Title=%title%" -T "Album=%albumtitle%" -T "Date=%year%" -T "Tracknumber=%tracknr%" -T "Comment=%comment%" %source%
TOC извлечённого CD
Трек | Старт | Длительность | Начальный сектор | Конечный сектор --------------------------------------------------------------------- 1 | 0:00.00 | 3:16.65 | 0 | 14764 2 | 3:16.65 | 3:29.27 | 14765 | 30466 3 | 6:46.17 | 3:39.25 | 30467 | 46916 4 | 10:25.42 | 3:11.50 | 46917 | 61291 5 | 13:37.17 | 3:27.60 | 61292 | 76876 6 | 17:05.02 | 4:11.03 | 76877 | 95704 7 | 21:16.05 | 3:01.22 | 95705 | 109301 8 | 24:17.27 | 3:22.35 | 109302 | 124486 9 | 27:39.62 | 3:25.33 | 124487 | 139894 10 | 31:05.20 | 2:53.20 | 139895 | 152889 11 | 33:58.40 | 3:41.45 | 152890 | 169509 12 | 37:40.10 | 2:39.70 | 169510 | 181504 13 | 40:20.05 | 4:23.27 | 181505 | 201256 14 | 44:43.32 | 2:53.38 | 201257 | 214269 15 | 47:36.70 | 3:38.52 | 214270 | 230671 16 | 51:15.47 | 3:51.35 | 230672 | 248031 17 | 55:07.07 | 3:22.70 | 248032 | 263251 18 | 58:30.02 | 3:07.25 | 263252 | 277301 19 | 61:37.27 | 3:19.60 | 277302 | 292286 20 | 64:57.12 | 2:45.08 | 292287 | 304669
Трек 1
Имя файла I:\MOI_RAZDACI\Daniel O Donnell\Daniel.O.Donnell_Songs.of.Inspiration_1996\01. Footsteps.wav
Длина предзазора 0:00:02.00
Пиковый уровень 93.5 % Скорость извлечения 4.7 X Качество трека 99.9 % CRC теста 1BFD48DF CRC копии 1BFD48DF Точность не определена (достоверность 1) [664414A7], AccurateRip вернул [18B46F5C] (AR v2) Копирование... OK
Трек 2
Имя файла I:\MOI_RAZDACI\Daniel O Donnell\Daniel.O.Donnell_Songs.of.Inspiration_1996\02. It Is No Secret.wav
Пиковый уровень 90.2 % Скорость извлечения 6.4 X Качество трека 100.0 % CRC теста E61A9B72 CRC копии E61A9B72 Точность не определена (достоверность 1) [17AFEC0D], AccurateRip вернул [68DCB1FB] (AR v2) Копирование... OK
Трек 3
Имя файла I:\MOI_RAZDACI\Daniel O Donnell\Daniel.O.Donnell_Songs.of.Inspiration_1996\03. You Needed Me.wav
Длина предзазора 0:00:00.70
Пиковый уровень 71.7 % Скорость извлечения 6.7 X Качество трека 100.0 % CRC теста 68F36EF0 CRC копии 68F36EF0 Точность не определена (достоверность 1) [CF800C46], AccurateRip вернул [2FB5F684] (AR v2) Копирование... OK
Трек 4
Имя файла I:\MOI_RAZDACI\Daniel O Donnell\Daniel.O.Donnell_Songs.of.Inspiration_1996\04. I Saw the Light.wav
Пиковый уровень 93.3 % Скорость извлечения 7.0 X Качество трека 100.0 % CRC теста 480D775B CRC копии 480D775B Точность не определена (достоверность 1) [B5780268], AccurateRip вернул [29F0157B] (AR v2) Копирование... OK
Трек 5
Имя файла I:\MOI_RAZDACI\Daniel O Donnell\Daniel.O.Donnell_Songs.of.Inspiration_1996\05. One Day at a Time.wav
Пиковый уровень 84.5 % Скорость извлечения 6.2 X Качество трека 99.9 % CRC теста 3A687F0C CRC копии 3A687F0C Точность не определена (достоверность 1) [49F3AE25], AccurateRip вернул [4522A196] (AR v2) Копирование... OK
Трек 6
Имя файла I:\MOI_RAZDACI\Daniel O Donnell\Daniel.O.Donnell_Songs.of.Inspiration_1996\06. My Forever Friend.wav
Пиковый уровень 76.9 % Скорость извлечения 8.1 X Качество трека 100.0 % CRC теста C67609EB CRC копии C67609EB Точность не определена (достоверность 1) [C6D9399E], AccurateRip вернул [4990B05E] (AR v2) Копирование... OK
Трек 7
Имя файла I:\MOI_RAZDACI\Daniel O Donnell\Daniel.O.Donnell_Songs.of.Inspiration_1996\07. When I Had You.wav
Пиковый уровень 80.6 % Скорость извлечения 8.0 X Качество трека 100.0 % CRC теста E3075B43 CRC копии E3075B43 Точность не определена (достоверность 1) [F7601CCE], AccurateRip вернул [A7B467DC] (AR v2) Копирование... OK
Трек 8
Имя файла I:\MOI_RAZDACI\Daniel O Donnell\Daniel.O.Donnell_Songs.of.Inspiration_1996\08. You'll Never Walk Alone.wav
Длина предзазора 0:00:00.48
Пиковый уровень 95.7 % Скорость извлечения 8.4 X Качество трека 100.0 % CRC теста 51E7139B CRC копии 51E7139B Точность не определена (достоверность 1) [4C11BA6B], AccurateRip вернул [CFD062A0] (AR v2) Копирование... OK
Трек 9
Имя файла I:\MOI_RAZDACI\Daniel O Donnell\Daniel.O.Donnell_Songs.of.Inspiration_1996\09. What a Friend We Have in Jesus.wav
Длина предзазора 0:00:02.29
Пиковый уровень 61.4 % Скорость извлечения 8.8 X Качество трека 100.0 % CRC теста E66E6E32 CRC копии E66E6E32 Точность не определена (достоверность 1) [F6F87BB6], AccurateRip вернул [174A0AA0] (AR v2) Копирование... OK
Трек 10
Имя файла I:\MOI_RAZDACI\Daniel O Donnell\Daniel.O.Donnell_Songs.of.Inspiration_1996\10. Why Me Lord.wav
Длина предзазора 0:00:01.18
Пиковый уровень 83.5 % Скорость извлечения 7.0 X Качество трека 99.9 % CRC теста 0C060D39 CRC копии 0C060D39 Точность не определена (достоверность 1) [091AA94D], AccurateRip вернул [023D28E3] (AR v2) Копирование... OK
Трек 11
Имя файла I:\MOI_RAZDACI\Daniel O Donnell\Daniel.O.Donnell_Songs.of.Inspiration_1996\11. The Old Rugged Cross.wav
Длина предзазора 0:00:02.59
Пиковый уровень 66.1 % Скорость извлечения 9.3 X Качество трека 100.0 % CRC теста 642B8F6A CRC копии 642B8F6A Точность не определена (достоверность 1) [B0B5D326], AccurateRip вернул [85122011] (AR v2) Копирование... OK
Трек 12
Имя файла I:\MOI_RAZDACI\Daniel O Donnell\Daniel.O.Donnell_Songs.of.Inspiration_1996\12. Yes I Really Love You.wav
Пиковый уровень 78.0 % Скорость извлечения 9.1 X Качество трека 100.0 % CRC теста E13C342B CRC копии E13C342B Точность не определена (достоверность 1) [A49D8395], AccurateRip вернул [F890035C] (AR v2) Копирование... OK
Трек 13
Имя файла I:\MOI_RAZDACI\Daniel O Donnell\Daniel.O.Donnell_Songs.of.Inspiration_1996\13. How Great Thou Art.wav
Пиковый уровень 98.9 % Скорость извлечения 10.1 X Качество трека 100.0 % CRC теста 09C5753F CRC копии 09C5753F Точность не определена (достоверность 1) [BC114398], AccurateRip вернул [AFDE0A38] (AR v2) Копирование... OK
Трек 14
Имя файла I:\MOI_RAZDACI\Daniel O Donnell\Daniel.O.Donnell_Songs.of.Inspiration_1996\14. This World Is Not My Home.wav
Пиковый уровень 66.3 % Скорость извлечения 9.6 X Качество трека 100.0 % CRC теста 41CEB23E CRC копии 41CEB23E Точность не определена (достоверность 1) [3467316C], AccurateRip вернул [6B38FA8A] (AR v2) Копирование... OK
Трек 15
Имя файла I:\MOI_RAZDACI\Daniel O Donnell\Daniel.O.Donnell_Songs.of.Inspiration_1996\15. He Took You Place.wav
Длина предзазора 0:00:00.64
Пиковый уровень 67.2 % Скорость извлечения 10.1 X Качество трека 100.0 % CRC теста 159B8292 CRC копии 159B8292 Точность не определена (достоверность 1) [7DA57AD7], AccurateRip вернул [B1BF6B42] (AR v2) Копирование... OK
Трек 16
Имя файла I:\MOI_RAZDACI\Daniel O Donnell\Daniel.O.Donnell_Songs.of.Inspiration_1996\16. Amazing Grace.wav
Пиковый уровень 70.6 % Скорость извлечения 10.7 X Качество трека 100.0 % CRC теста AA48FC08 CRC копии AA48FC08 Точность не определена (достоверность 1) [AA5E76C7], AccurateRip вернул [E6343013] (AR v2) Копирование... OK
Трек 17
Имя файла I:\MOI_RAZDACI\Daniel O Donnell\Daniel.O.Donnell_Songs.of.Inspiration_1996\17. The Family Bible.wav
Пиковый уровень 68.3 % Скорость извлечения 11.2 X Качество трека 100.0 % CRC теста 1FEA77FE CRC копии 1FEA77FE Точность не определена (достоверность 1) [9769091F], AccurateRip вернул [8FA24038] (AR v2) Копирование... OK
Трек 18
Имя файла I:\MOI_RAZDACI\Daniel O Donnell\Daniel.O.Donnell_Songs.of.Inspiration_1996\18. In the Garden.wav
Длина предзазора 0:00:02.00
Пиковый уровень 63.5 % Скорость извлечения 11.2 X Качество трека 100.0 % CRC теста 562C7F8A CRC копии 562C7F8A Точность не определена (достоверность 1) [9B622262], AccurateRip вернул [62CDF462] (AR v2) Копирование... OK
Трек 19
Имя файла I:\MOI_RAZDACI\Daniel O Donnell\Daniel.O.Donnell_Songs.of.Inspiration_1996\19. Children's Band.wav
Пиковый уровень 87.6 % Скорость извлечения 11.0 X Качество трека 100.0 % CRC теста EFB8B0E0 CRC копии EFB8B0E0 Точность не определена (достоверность 1) [ED67A3F7], AccurateRip вернул [1CFAF14F] (AR v2) Копирование... OK
Трек 20
Имя файла I:\MOI_RAZDACI\Daniel O Donnell\Daniel.O.Donnell_Songs.of.Inspiration_1996\20. Standing Room Only.wav
Длина предзазора 0:00:02.16
Пиковый уровень 67.2 % Скорость извлечения 10.8 X Качество трека 100.0 % CRC теста 7878851F CRC копии 7878851F Точность не определена (достоверность 1) [79AADF21], AccurateRip вернул [28D9A1DA] (AR v2) Копирование... OK
Ни один трек не прошёл проверки на точностьВ вашей базе может быть иной вариант штамповки диска
Ошибок не произошло
Конец отчёта
==== Контрольная сумма отчёта 29F1AE1966FD87709E9464BD38D8BCEFFB06853EF1CE07B7FF6786927BC337CB ====

Содержание индексной карты (.CUE)

REM GENRE PopREM DATE 1996REM DISCID 400FDE14REM COMMENT "ExactAudioCopy v1.0b3"PERFORMER "Daniel O'Donnell"TITLE "Songs of Inspiration"FILE "01. Footsteps.wav" WAVE TRACK 01 AUDIO TITLE "Footsteps" PERFORMER "Daniel O'Donnell" INDEX 01 00:00:00FILE "02. It Is No Secret.wav" WAVE TRACK 02 AUDIO TITLE "It Is No Secret" PERFORMER "Daniel O'Donnell" INDEX 01 00:00:00 TRACK 03 AUDIO TITLE "You Needed Me" PERFORMER "Daniel O'Donnell" INDEX 00 03:28:32FILE "03. You Needed Me.wav" WAVE INDEX 01 00:00:00FILE "04. I Saw the Light.wav" WAVE TRACK 04 AUDIO TITLE "I Saw the Light" PERFORMER "Daniel O'Donnell" INDEX 01 00:00:00FILE "05. One Day at a Time.wav" WAVE TRACK 05 AUDIO TITLE "One Day at a Time" PERFORMER "Daniel O'Donnell" INDEX 01 00:00:00FILE "06. My Forever Friend.wav" WAVE TRACK 06 AUDIO TITLE "My Forever Friend" PERFORMER "Daniel O'Donnell" INDEX 01 00:00:00FILE "07. When I Had You.wav" WAVE TRACK 07 AUDIO TITLE "When I Had You" PERFORMER "Daniel O'Donnell" INDEX 01 00:00:00 TRACK 08 AUDIO TITLE "You'll Never Walk Alone" PERFORMER "Daniel O'Donnell" INDEX 00 03:00:49FILE "08. You'll Never Walk Alone.wav" WAVE INDEX 01 00:00:00 TRACK 09 AUDIO TITLE "What a Friend We Have in Jesus" PERFORMER "Daniel O'Donnell" INDEX 00 03:20:06FILE "09. What a Friend We Have in Jesus.wav" WAVE INDEX 01 00:00:00 TRACK 10 AUDIO TITLE "Why Me Lord" PERFORMER "Daniel O'Donnell" INDEX 00 03:24:15FILE "10. Why Me Lord.wav" WAVE INDEX 01 00:00:00 TRACK 11 AUDIO TITLE "The Old Rugged Cross" PERFORMER "Daniel O'Donnell" INDEX 00 02:50:36FILE "11. The Old Rugged Cross.wav" WAVE INDEX 01 00:00:00FILE "12. Yes I Really Love You.wav" WAVE TRACK 12 AUDIO TITLE "Yes I Really Love You" PERFORMER "Daniel O'Donnell" INDEX 01 00:00:00FILE "13. How Great Thou Art.wav" WAVE TRACK 13 AUDIO TITLE "How Great Thou Art" PERFORMER "Daniel O'Donnell" INDEX 01 00:00:00FILE "14. This World Is Not My Home.wav" WAVE TRACK 14 AUDIO TITLE "This World Is Not My Home" PERFORMER "Daniel O'Donnell" INDEX 01 00:00:00 TRACK 15 AUDIO TITLE "He Took You Place" PERFORMER "Daniel O'Donnell" INDEX 00 02:52:49FILE "15. He Took You Place.wav" WAVE INDEX 01 00:00:00FILE "16. Amazing Grace.wav" WAVE TRACK 16 AUDIO TITLE "Amazing Grace" PERFORMER "Daniel O'Donnell" INDEX 01 00:00:00FILE "17. The Family Bible.wav" WAVE TRACK 17 AUDIO TITLE "The Family Bible" PERFORMER "Daniel O'Donnell" INDEX 01 00:00:00 TRACK 18 AUDIO TITLE "In the Garden" PERFORMER "Daniel O'Donnell" INDEX 00 03:20:70FILE "18. In the Garden.wav" WAVE INDEX 01 00:00:00FILE "19. Children's Band.wav" WAVE TRACK 19 AUDIO TITLE "Children's Band" PERFORMER "Daniel O'Donnell" INDEX 01 00:00:00 TRACK 20 AUDIO TITLE "Standing Room Only" PERFORMER "Daniel O'Donnell" INDEX 00 03:17:44FILE "20. Standing Room Only.wav" WAVE INDEX 01 00:00:00

Лог проверки качества

-----------------------
DON'T MODIFY THIS FILE
-----------------------
PERFORMER: auCDtect Task Manager, ver. 1.5.1RC6 build 1.5.1.7Copyright (c) 2008-2010 y-soft. All rights reservedhttp://y-soft.org
ANALYZER: auCDtect: CD records authenticity detector, version 0.8.2Copyright (c) 2004 Oleg Berngardt. All rights reserved.Copyright (c) 2004 Alexander Djourik. All rights reserved.
FILE: 20. Standing Room Only.flac Size: 14915050 Hash: D21DBB59CEB7FAB735F872A817E2605F Accuracy: -m0 Conclusion: CDDA 100% Signature: 4BB2943A4E3D4ADE21997A938D925AA93B051363FILE: 19. Children's Band.flac Size: 19727438 Hash: 552D83B60D4DF016CA6C67C5FA1675FD Accuracy: -m0 Conclusion: CDDA 100% Signature: F6A19E8FAC21C28CF0C2FB7CCAE72D1F0A16580CFILE: 18. In the Garden.flac Size: 14577756 Hash: A66E5AEC2304120390325542E68E311C Accuracy: -m0 Conclusion: CDDA 100% Signature: 62FB942A1E93DECB7E5462B79D7C28E87BBA52CCFILE: 17. The Family Bible.flac Size: 16979005 Hash: 2B4270233B36C03B41DEECCAA182573A Accuracy: -m0 Conclusion: CDDA 100% Signature: 5AD5B00118ED91B2B89EAC8E110A8C2CDE8818D4FILE: 16. Amazing Grace.flac Size: 18172176 Hash: 940183A5362451E5C0255947EB2DCD6D Accuracy: -m0 Conclusion: CDDA 100% Signature: 0325F30C4A1C16200B3340112640AE9939E3D7A0FILE: 15. He Took You Place.flac Size: 18279374 Hash: 268F50D1DC4EF9E3597D96FA6B929B67 Accuracy: -m0 Conclusion: CDDA 100% Signature: 9336F94E6458002C71BEF9CE22E7BD7844ED82EAFILE: 14. This World Is Not My Home.flac Size: 14407254 Hash: 3ED6B10552D0027AFF4F15164A54796E Accuracy: -m0 Conclusion: CDDA 100% Signature: A5B7D636431D2167E76F3EE840A38A80BD1F067EFILE: 13. How Great Thou Art.flac Size: 24162747 Hash: 9B2EC618BE890112A2E8E3A4FD148285 Accuracy: -m0 Conclusion: CDDA 99% Signature: A2A36E15DCABF0E0E9F3866BFCA95F987D70E9F1FILE: 12. Yes I Really Love You.flac Size: 15714226 Hash: A8B97984C6D5737BC63A7B2E0349ACE8 Accuracy: -m0 Conclusion: CDDA 100% Signature: 61D4F17A05B44626F2C38EC92BE91CFB7378EADEFILE: 11. The Old Rugged Cross.flac Size: 20289662 Hash: 0C246379A2F66E2AEA77C777ADAC5DC5 Accuracy: -m0 Conclusion: CDDA 99% Signature: 0AE279ABC8630CCE9D1863527D9CD6A507F94D9CFILE: 10. Why Me Lord.flac Size: 15541098 Hash: 8412DEA19256BF4C434296D2C7BF1F52 Accuracy: -m0 Conclusion: CDDA 99% Signature: 227DCFD414583DAE2395C6B43A54F8238769C4E7FILE: 09. What a Friend We Have in Jesus.flac Size: 17690426 Hash: F429F2985BC28CCE4A89596268AAE585 Accuracy: -m0 Conclusion: CDDA 100% Signature: 69D8DC52CAF3DD22E60ADA3112480C480282AFC2FILE: 08. You'll Never Walk Alone.flac Size: 17804273 Hash: 05E177F1031DD74070D6AB72836488DE Accuracy: -m0 Conclusion: CDDA 99% Signature: 4557E45B2640F3E27F8BA93DA4CA161DE70031B5FILE: 07. When I Had You.flac Size: 16331842 Hash: AD68C135FF4020EF30FF55ACB2ACC00B Accuracy: -m0 Conclusion: CDDA 100% Signature: F2E1B4E53EB4928BCF1EF9D05FECF8FD3477C784FILE: 06. My Forever Friend.flac Size: 21814383 Hash: 440301D7B5A1FD806A03B98FBB79B23B Accuracy: -m0 Conclusion: CDDA 100% Signature: 33D31DA2012B2D20FDD5A3B61B6F998CEA499B1CFILE: 05. One Day at a Time.flac Size: 19025035 Hash: C344481E84310D60F8AC00E92833C3CD Accuracy: -m0 Conclusion: CDDA 99% Signature: 53156691451D48A80FB648009CE5980F3CB94574FILE: 04. I Saw the Light.flac Size: 17548467 Hash: 80E1D9CE9D68755DBE5E807BFDAE30BD Accuracy: -m0 Conclusion: CDDA 100% Signature: 02E09CE843487C4FE55001A23D40787FF8751D3CFILE: 03. You Needed Me.flac Size: 17440812 Hash: A12AB467A970C45B565BA55311F9CB61 Accuracy: -m0 Conclusion: CDDA 100% Signature: 4C975A304969DBDE7C51953851F70FF68FAE162AFILE: 02. It Is No Secret.flac Size: 17513879 Hash: 761C8436383BEE2C64A357B4E24F4AF9 Accuracy: -m0 Conclusion: CDDA 100% Signature: DD0B78FFC511579238608262CF21F700249BDBE4FILE: 01. Footsteps.flac Size: 19274657 Hash: 1126FA34374FCEF9E099070F4D81B2C4 Accuracy: -m0 Conclusion: CDDA 100% Signature: 18513E251BE29A6DE9621250FB865E98BA8AB92D

МОИ РАЗДАЧИ - МУЗЫКА: / MY DISTRIBUTION - MUSIC:

Rock music:

Прямые кликабельные ссылки на раздачи.
Direct clickable links to hand.














Pop music:

Прямые кликабельные ссылки на раздачи.
Direct clickable links to hand.
















Other music including Electronic and Soundtracks:

Прямые кликабельные ссылки на раздачи.
Direct clickable links to hand.













[doutdess.site].t86942.torrent
Torrent: Registered [ 2015-10-31 16:25 ] · 8521AC8CD655968D54221FFAAA18B994097C37BB

18 KB

Status: checked
Completed: 0 times
Size: 393 MB
(Pop, Country, Vocals) [CD] Daniel O\'Donnell - Songs Of Inspiration - 1996, FLAC (tracks+.cue), lossless скачать торрент бесплатно и без регистрации

[Profile] [PM]
Forum Topic Author Size
Country, Bluegrass lossy (Pop, Country) Gretta Ray - Here and Now - 2018, MP3, 320 kbps Vi$itReal 70 MB
Country, Bluegrass lossy (Pop, Country) Kane Brown - Kane Brown - 2016, MP3, 320 kbps Vi$itReal 83 MB
Country, Bluegrass lossy (Pop, Country) Loretta Lynn - Hymns And Gospel Favourites - 2015, MP3, 320 kbps Vi$itReal 85 MB
Country, Bluegrass lossless (Pop, Country) [CD] Billy Swan - Billy Swan\'s Best - 1993, FLAC (image+.cue), lossless RelizMAN 308 MB
Country, Bluegrass lossless (Pop, Country) [WEB] Elizabeth Barnes - IV-Ever Adorer - 2019, FLAC (tracks), lossless RelizMAN 247 MB
Country, Bluegrass lossless (Pop, Country) [WEB] Maren Morris - GIRL - 2019, FLAC (tracks), lossless RelizMAN 316 MB
Country, Bluegrass lossy (Pop, Country, CCM, Rock) B. J. Thomas - Дискография (Неполная) - 1966-2014, MP3, 128-320 kbps Vi$itReal 3.53 GB
Country, Bluegrass lossy (Pop, Country, Oldies) Billy Mize - Columbia Singles - 2018, MP3, 320 kbps Vi$itReal 67 MB
Display posts:    

Current time is: 20-Sep 17:39

All times are UTC + 3



You cannot post new topics in this forum
You cannot reply to topics in this forum
You cannot edit your posts in this forum
You cannot delete your posts in this forum
You cannot vote in polls in this forum
You cannot attach files in this forum
You can download files in this forum