Reply to topic
DL-List and Torrent activity [Update пиров]
Size:  692 MB   |    Registered:  4 years 10 months   |    Completed:  0 times
Seeders:  804  [  0 KB/s  ]   Leechers:  25  [  0 KB/s  ]  
 
     
 
 
Author Message

Vi$itReal ®

12

Post 10-Nov-2015 12:20

[Quote]

Кубанский Казачий Хор / Многая лета
Жанр: Folk
Носитель: CD
Страна-производитель диска (релиза): Россия
Год издания: 1994
Издатель (лейбл): Русский Диск
Номер по каталогу: RDCD 00462
Страна исполнителя (группы): Россия
Аудиокодек: FLAC (*.flac)
Тип рипа: image+.cue
Битрейт аудио: lossless
Продолжительность: 01:06:38
Источник (релизер): mart64val
Наличие сканов в содержимом раздачи: да
Треклист:
01. За Кубанью огонь горыть
02. Прощай, мий край, дэ я родывся
03. Взяв бы я бандуру
04. За Сибиром сонце сходэ
05. Вэчир на двори
06. Распрягайтэ, хлопци, конэй
07. Ой,шо ж воно та й за ворон
08. Умер бедняга в больнице военной
09. Шапка по кругу
10. Я-деревня
11. Да зимой и летом сосёнушка была зелена
12. Белый лен при долине
13. Кто вырос в России
14. Русь
15. Благословлю Господа на всякое время
16. Похвалу принесу
17. Христос воскресе
18. Многая лета

Лог создания рипа

Exact Audio Copy V1.0 beta 3 from 29. August 2011
Отчёт EAC об извлечении, выполненном 10. ноября 2015, 11:36
Кубанский Казачий Хор / Многая лета
Дисковод: Optiarc DVD RW AD-7280S Adapter: 1 ID: 0
Режим чтения : ДостоверностьИспользование точного потока : ДаОтключение кэша аудио : ДаИспользование указателей C2 : Нет
Коррекция смещения при чтении : 48Способность читать области Lead-in и Lead-out : НетЗаполнение пропущенных сэмплов тишиной : ДаУдаление блоков с тишиной в начале и конце : НетПри вычислениях CRC использовались нулевые сэмплы : ДаИнтерфейс : Встроенный Win32-интерфейс для Win NT/2000
Выходной формат : Внутренние WAV-операцииФормат сэмплов : 44.100 Гц; 16 бит; стерео
TOC извлечённого CD
Трек | Старт | Длительность | Начальный сектор | Конечный сектор --------------------------------------------------------------------- 1 | 0:00.27 | 1:40.18 | 27 | 7544 2 | 1:40.45 | 3:14.15 | 7545 | 22109 3 | 4:54.60 | 5:31.47 | 22110 | 46981 4 | 10:26.32 | 4:27.18 | 46982 | 67024 5 | 14:53.50 | 5:34.22 | 67025 | 92096 6 | 20:27.72 | 3:58.48 | 92097 | 109994 7 | 24:26.45 | 6:39.42 | 109995 | 139961 8 | 31:06.12 | 6:06.23 | 139962 | 167434 9 | 37:12.35 | 3:47.62 | 167435 | 184521 10 | 41:00.22 | 3:20.50 | 184522 | 199571 11 | 44:20.72 | 2:17.40 | 199572 | 209886 12 | 46:38.37 | 1:37.15 | 209887 | 217176 13 | 48:15.52 | 4:16.10 | 217177 | 236386 14 | 52:31.62 | 2:49.63 | 236387 | 249124 15 | 55:21.50 | 3:31.55 | 249125 | 265004 16 | 58:53.30 | 3:58.22 | 265005 | 282876 17 | 62:51.52 | 1:32.10 | 282877 | 289786 18 | 64:23.62 | 2:14.33 | 289787 | 299869
Характеристики диапазона извлечения и сообщения об ошибках
Выбранный диапазон
Имя файла C:\Users\User\Desktop\111\Кубанский Казачий Хор - Многая лета.wav
Пиковый уровень 99.1 % Скорость извлечения 4.6 X Качество диапазона 99.9 % CRC копии B2153A4A Копирование... OK
Ошибок не произошло
AccurateRip: сводка
Трек 1 отсутствует в базе данныхТрек 2 отсутствует в базе данныхТрек 3 отсутствует в базе данныхТрек 4 отсутствует в базе данныхТрек 5 отсутствует в базе данныхТрек 6 отсутствует в базе данныхТрек 7 отсутствует в базе данныхТрек 8 отсутствует в базе данныхТрек 9 отсутствует в базе данныхТрек 10 отсутствует в базе данныхТрек 11 отсутствует в базе данныхТрек 12 отсутствует в базе данныхТрек 13 отсутствует в базе данныхТрек 14 отсутствует в базе данныхТрек 15 отсутствует в базе данныхТрек 16 отсутствует в базе данныхТрек 17 отсутствует в базе данныхТрек 18 отсутствует в базе данных
Ни одного трека нет в базе AccurateRip
Конец отчёта
==== Контрольная сумма отчёта 1217D09D7AF812E395D21A27B79B4B3B0AFE850F10703E365C575B8434CDEA3E ====
[doutdess.site].t88737.torrent
Torrent: Registered [ 2015-11-10 12:20 ] · FF54937C781C0B6DDC0F00CD896F6FE044B386EC

15 KB

Status: checked
Completed: 0 times
Size: 692 MB
(Folk) [CD] Кубанский Казачий Хор - Многая лета - 1994, FLAC (image+.cue), lossless скачать торрент бесплатно и без регистрации

[Profile] [PM]
Forum Topic Author Size
Этническая музыка Африки и Ближнего Востока lossless (Folk) [CDR] Cécile Kayirebwa - Rwanda - 1994, FLAC (tracks+.cue), lossless RelizMAN 408 MB
Восточноевропейский фолк в lossless (Folk) [CDR] Андрей Виноградов - Сокол - 2000, FLAC (image+.cue), lossless Vi$itReal 243 MB
Этническая музыка Сибири, Средней и Восточной Азии lossless (Folk) [CD] 多謀室內樂團 (Multi-commitment Chamber Orchestra) - 古早夜曲 (The Missing Nocturnes of Taiwan) - 2002, FLAC (image+.cue),... RelizMAN 172 MB
Этническая музыка Африки и Ближнего Востока lossless (Folk) [CD] Amadou & Mariam - Dimanche A Bamako - 2004, FLAC (tracks), lossless RelizMAN 389 MB
Западноевропейский фолк в lossless (Folk) [CD] Ambrogio Sparagna - Sparagna - 2004, FLAC (tracks+.cue), lossless Vi$itReal 312 MB
Восточноевропейский фолк в lossless (Folk) [CD] Anatol Stefanet - Moldavie: L\'art du bratsch (Alto) Vol. 1 - 1994, FLAC (tracks+.cue), lossless Vi$itReal 181 MB
Западноевропейский фолк в lossless (Folk) [CD] Ane Brun - Leave Me Breathless - 2017, FLAC (tracks+.cue), lossless Vi$itReal 253 MB
Country, Bluegrass lossless (Folk) [CD] Bob Dylan vs Pete Seeger - The Singer And The Song (2CD) - 2014, FLAC (tracks+.cue), lossless RelizMAN 541 MB
Display posts:    

Current time is: 23-Sep 21:30

All times are UTC + 3



You cannot post new topics in this forum
You cannot reply to topics in this forum
You cannot edit your posts in this forum
You cannot delete your posts in this forum
You cannot vote in polls in this forum
You cannot attach files in this forum
You can download files in this forum