Reply to topic
DL-List and Torrent activity [Update пиров]
Size:  337 MB   |    Registered:  4 years 10 months   |    Completed:  1 time
Seeders:  144  [  0 KB/s  ]   Leechers:  22  [  0 KB/s  ]  
 
     
 
 
Author Message

RelizMAN ®

11

Post 09-Nov-2015 11:25

[Quote]

(indian classical, carnatic) [cd] A.K.C. Natarajan - Carnatic Classical - Instrumental (1994), FLAC (tracks+.cue), lossless


A.K.C. Natarajan - Carnatic Classical - Instrumental (1994)
Жанр: indian classical, carnatic
Год выпуска: 1994
Издатель (лейбл):INRECO
Формат: FLAC (tracks+.cue)
Битрейт аудио: lossless
Продолжительность 1`00`05
Источник: what.cd

tracks

1. Siddhi Vinayakam (A.K.C): Raga: Mohanakalyani; Tala: Adi 7:23
2. Yogeenthra Saayeenam (A.K.C): Raga: Kunthala Varali; Tala: Kanda Chapu 4:24
3. Kaanavendamo (A.K.C): Raga: Sriranjani; Tala: Rupakam 4:14
4. Unnaiyallal (A.K.C): Raga: Kalyani; Tala: Adi 13:52
5. Thani Avarthanam (A.K.C) 6:58
6. Kaa Vaa Vaa (A.K.C): Raga: Varali; Tala: Adi 6:05
7. Rama Ninne Nammina (A.K.C): Raga: Mohanam; Tala: Adi
8. Theeradha Vilaiyattu Pillai (A.K.C): Raga: Ragamalika 6:44
9. English Note (A.K.C) 3:40
10. Thiruppukazh (A.K.C) 1:22

.log

Exact Audio Copy V1.0 beta 2 from 29. April 2011
EAC extraction logfile from 23. March 2012, 19:06
A.K.C. Natarajan / Carnatic Classical - Instrumental
Used drive : hp DVD-RAM GH60L Adapter: 0 ID: 0
Read mode : SecureUtilize accurate stream : YesDefeat audio cache : YesMake use of C2 pointers : No
Read offset correction : 667Overread into Lead-In and Lead-Out : NoFill up missing offset samples with silence : YesDelete leading and trailing silent blocks : NoNull samples used in CRC calculations : YesUsed interface : Native Win32 interface for Win NT & 2000Gap handling : Appended to previous track
Used output format : User Defined EncoderSelected bitrate : 896 kBit/sQuality : HighAdd ID3 tag : NoCommand line compressor : C:\Program Files (x86)\FLAC\flac.exeAdditional command line options : -8 -V -T "ARTIST=%artist%" -T "TITLE=%title%" -T "ALBUM=%albumtitle%" -T "DATE=%year%" -T "TRACKNUMBER=%tracknr%" -T "GENRE=%genre%" -T "PERFORMER=%albuminterpret%" -T "COMPOSER=%composer%" %haslyrics%--tag-from-file=LYRICS
TOC of the extracted CD
Track | Start | Length | Start sector | End sector --------------------------------------------------------- 1 | 0:00.00 | 7:23.35 | 0 | 33259 2 | 7:23.35 | 4:24.10 | 33260 | 53069 3 | 11:47.45 | 4:14.67 | 53070 | 72186 4 | 16:02.37 | 13:52.53 | 72187 | 134639 5 | 29:55.15 | 6:58.70 | 134640 | 166059 6 | 36:54.10 | 6:05.30 | 166060 | 193464 7 | 42:59.40 | 5:16.52 | 193465 | 217216 8 | 48:16.17 | 6:46.08 | 217217 | 247674 9 | 55:02.25 | 3:40.05 | 247675 | 264179 10 | 58:42.30 | 1:22.47 | 264180 | 270376
Track 1
Filename K:\Working Group\01 Siddhi Vinayakam (A.K.C)- Raga- Mohanakalyani; Tala- Adi.wav
Pre-gap length 0:00:02.00
Peak level 89.3 % Extraction speed 1.8 X Track quality 100.0 % Test CRC 3ACFC8AB Copy CRC 3ACFC8AB Track not present in AccurateRip database Copy OK
Track 2
Filename K:\Working Group\02 Yogeenthra Saayeenam (A.K.C)- Raga- Kunthala Varali; Tala- Kanda Chapu.wav
Peak level 95.4 % Extraction speed 1.9 X Track quality 100.0 % Test CRC 2E67BF2A Copy CRC 2E67BF2A Track not present in AccurateRip database Copy OK
Track 3
Filename K:\Working Group\03 Kaanavendamo (A.K.C)- Raga- Sriranjani; Tala- Rupakam.wav
Peak level 95.6 % Extraction speed 2.0 X Track quality 100.0 % Test CRC 5F4A229E Copy CRC 5F4A229E Track not present in AccurateRip database Copy OK
Track 4
Filename K:\Working Group\04 Unnaiyallal (A.K.C)- Raga- Kalyani; Tala- Adi.wav
Peak level 96.9 % Extraction speed 2.3 X Track quality 100.0 % Test CRC E246DE18 Copy CRC E246DE18 Track not present in AccurateRip database Copy OK
Track 5
Filename K:\Working Group\05 Thani Avarthanam (A.K.C).wav
Peak level 90.6 % Extraction speed 2.3 X Track quality 99.9 % Test CRC 4999A460 Copy CRC 4999A460 Track not present in AccurateRip database Copy OK
Track 6
Filename K:\Working Group\06 Kaa Vaa Vaa (A.K.C)- Raga- Varali; Tala- Adi.wav
Peak level 91.7 % Extraction speed 2.6 X Track quality 100.0 % Test CRC B5B8D6C0 Copy CRC B5B8D6C0 Track not present in AccurateRip database Copy OK
Track 7
Filename K:\Working Group\07 Rama Ninne Nammina (A.K.C)- Raga- Mohanam; Tala- Adi.wav
Peak level 90.4 % Extraction speed 2.4 X Track quality 99.9 % Test CRC DDDCE39D Copy CRC DDDCE39D Track not present in AccurateRip database Copy OK
Track 8
Filename K:\Working Group\08 Theeradha Vilaiyattu Pillai (A.K.C)- Raga- Ragamalika.wav
Peak level 89.9 % Extraction speed 2.8 X Track quality 100.0 % Test CRC B5480DC0 Copy CRC B5480DC0 Track not present in AccurateRip database Copy OK
Track 9
Filename K:\Working Group\09 English Note (A.K.C).wav
Peak level 90.0 % Extraction speed 2.4 X Track quality 99.9 % Test CRC E7D1D204 Copy CRC E7D1D204 Track not present in AccurateRip database Copy OK
Track 10
Filename K:\Working Group\10 Thiruppukazh (A.K.C).wav
Peak level 88.1 % Extraction speed 2.3 X Track quality 100.0 % Test CRC 8F41C7F1 Copy CRC 8F41C7F1 Track not present in AccurateRip database Copy OK
None of the tracks are present in the AccurateRip database
No errors occurred
End of status report
==== Log checksum ACEF2444B0405D240BF6F884FBCA859D8A1CF0D740DB8BBE78330E7070E04A1A ====

.cue

REM GENRE indianREM DATE 1994REM DISCID 980E150AREM COMMENT "ExactAudioCopy v1.0b2"PERFORMER "A.K.C. Natarajan"TITLE "Carnatic Classical - Instrumental"FILE "01 Siddhi Vinayakam (A.K.C)- Raga- Mohanakalyani; Tala- Adi.wav" WAVE TRACK 01 AUDIO TITLE "Siddhi Vinayakam (A.K.C): Raga: Mohanakalyani; Tala: Adi" PERFORMER "A.K.C. Natarajan" FLAGS DCP INDEX 01 00:00:00FILE "02 Yogeenthra Saayeenam (A.K.C)- Raga- Kunthala Varali; Tala- Kanda Chapu.wav" WAVE TRACK 02 AUDIO TITLE "Yogeenthra Saayeenam (A.K.C): Raga: Kunthala Varali; Tala: Kanda Chapu" PERFORMER "A.K.C. Natarajan" FLAGS DCP INDEX 01 00:00:00FILE "03 Kaanavendamo (A.K.C)- Raga- Sriranjani; Tala- Rupakam.wav" WAVE TRACK 03 AUDIO TITLE "Kaanavendamo (A.K.C): Raga: Sriranjani; Tala: Rupakam" PERFORMER "A.K.C. Natarajan" FLAGS DCP INDEX 01 00:00:00FILE "04 Unnaiyallal (A.K.C)- Raga- Kalyani; Tala- Adi.wav" WAVE TRACK 04 AUDIO TITLE "Unnaiyallal (A.K.C): Raga: Kalyani; Tala: Adi" PERFORMER "A.K.C. Natarajan" FLAGS DCP INDEX 01 00:00:00FILE "05 Thani Avarthanam (A.K.C).wav" WAVE TRACK 05 AUDIO TITLE "Thani Avarthanam (A.K.C)" PERFORMER "A.K.C. Natarajan" FLAGS DCP INDEX 01 00:00:00FILE "06 Kaa Vaa Vaa (A.K.C)- Raga- Varali; Tala- Adi.wav" WAVE TRACK 06 AUDIO TITLE "Kaa Vaa Vaa (A.K.C): Raga: Varali; Tala: Adi" PERFORMER "A.K.C. Natarajan" FLAGS DCP INDEX 01 00:00:00FILE "07 Rama Ninne Nammina (A.K.C)- Raga- Mohanam; Tala- Adi.wav" WAVE TRACK 07 AUDIO TITLE "Rama Ninne Nammina (A.K.C): Raga: Mohanam; Tala: Adi" PERFORMER "A.K.C. Natarajan" FLAGS DCP INDEX 01 00:00:00FILE "08 Theeradha Vilaiyattu Pillai (A.K.C)- Raga- Ragamalika.wav" WAVE TRACK 08 AUDIO TITLE "Theeradha Vilaiyattu Pillai (A.K.C): Raga: Ragamalika" PERFORMER "A.K.C. Natarajan" FLAGS DCP INDEX 01 00:00:00FILE "09 English Note (A.K.C).wav" WAVE TRACK 09 AUDIO TITLE "English Note (A.K.C)" PERFORMER "A.K.C. Natarajan" FLAGS DCP INDEX 01 00:00:00FILE "10 Thiruppukazh (A.K.C).wav" WAVE TRACK 10 AUDIO TITLE "Thiruppukazh (A.K.C)" PERFORMER "A.K.C. Natarajan" FLAGS DCP INDEX 01 00:00:00
[doutdess.site].t88560.torrent
Torrent: Registered [ 2015-11-09 11:25 ] · BEBD26B44012AF74DA48FF891D61F3AAD6A83368

15 KB

Status: checked
Completed: 1 times
Size: 337 MB
(indian classical, carnatic) [cd] A.K.C. Natarajan - Carnatic Classical - Instrumental (1994), FLAC (tracks+.cue), lossless скачать торрент бесплатно и без регистрации

[Profile] [PM]
Forum Topic Author Size
Этническая музыка Индии lossless (indian classical ) [cd] Kartik Seshadri - Raga: Rasa 2004 (2 cd), FLAC (tracks+.cue), lossless RelizMAN 662 MB
Этническая музыка Индии lossy (Indian Classical Music / Ghazal) Shreya Ghoshal - Humnasheen - 2014, MP3 (tracks), 320 kbps Vi$itReal 121 MB
Этническая музыка Индии lossless (Indian Classical Music / Ghazal) [CD] Shreya Ghoshal - Humnasheen - 2014, FLAC (tracks+.cue), lossless RelizMAN 314 MB
Этническая музыка Индии lossy (Indian Classical Music) Ustad Rashid Khan & Suha Khan - Ishq Lamhe - 2013, MP3, 192 kbps Vi$itReal 81 MB
Этническая музыка Индии lossless (Indian classical music) Ustad Zakir Hussain & Various Indian Percussionists - Classical Instrumental - Tabla - 2003, FLAC (image+.cue), lossless RelizMAN 288 MB
Этническая музыка Индии lossless (Indian Classical Music, Recorded: 1950-55, l. Auvidis, UNESCO Collection) [CD] VA - Anthology of Indian Classical Music: A Tribute to Alain Danielou (3CD) - 1997, FLAC (tracks+.cue), lossless RelizMAN 663 MB
Этническая музыка Индии lossless (Indian Classical Vocal) [CD] Arati Ankalikar-Tikekar (Aarti Ankalikar, Ramesh Mishra & Ramdas Palsule) - Raga Ahir Bhairav, Mira Bhajan {India Archive Music} - 2007, FLAC (tracks+.cue), lossless RelizMAN 389 MB
Этническая музыка Индии lossless (Indian Classical Vocal, Dhrupad, Sense World Music) [WEB] Ustad Hussain Sayeeduddin Dagar - Lineage Of Dhrupad - Raga Bhairav, Raga Gunakali & Raga Komal Rishabh Asavari - 2005, FLAC (tracks),... RelizMAN 348 MB
Display posts:    

Current time is: 27-Sep 02:30

All times are UTC + 3



You cannot post new topics in this forum
You cannot reply to topics in this forum
You cannot edit your posts in this forum
You cannot delete your posts in this forum
You cannot vote in polls in this forum
You cannot attach files in this forum
You can download files in this forum