Reply to topic
DL-List and Torrent activity [Update пиров]
Size:  169 MB   |    Registered:  4 years 10 months   |    Completed:  1 time
Seeders:  269  [  0 KB/s  ]   Leechers:  38  [  0 KB/s  ]  
 
     
 
 
Author Message

Vi$itReal ®

12

Post 01-Nov-2015 18:25

[Quote]

Emma Christian / Beneath The Twilight
Жанр: Celtic, Manx
Носитель: CD
Страна-производитель диска (релиза): UK
Год издания: 1994
Издатель (лейбл): Manx/Celtic Productions
Номер по каталогу: EMCD1
Страна исполнителя (группы): UK
Аудиокодек: FLAC (*.flac)
Тип рипа: tracks+.cue
Битрейт аудио: lossless
Продолжительность: 00:44:16
Источник (релизер): what
Наличие сканов в содержимом раздачи: да
Треклист:
01 - "Mannanan"
02 - "Three Eeasteyyn Boghty (Three Poor Fishermen)"
03 - "Gheay Jeh'n Aer (The Sea Invocation)"
04 - "Berree Dhone"
05 - "Ushag Veg Ruy (Little Red Bird)"
06 - "Arrane Ben-Vlieaun (Song of the Milkmaid)"
07 - "Ny Kirree Fo Sniaghtey (The Sheep Under The Snow)"
08 - "O Kirree T'ou Goll Dy Faagail Mee (O Kirree, Thou Wilt Leave Me)"
09 - "Oikan Ayns Bethlehem (Birth in Bethlehem)"
10 - "Shooyl Inneenyn (Dance of the Girls)"
11 - "Lament of the Duchess of Gloucester"
12 - "Vreeshey, Vreeshey (Invocation to Saint Bridget)"
13 - "Mylecharaine's March"
14 - "O My Graih (O My Love)"
15 - "Padjer Colum Keeiley (Invocation to Saint Columba)"
16 - "Arrane Saveenagh (Slumber Song)"
17 - "Arrane Ghelbee (Song of Dalby)"
18 - "Arrane Oie Vie (The Goodnight Song)"

Лог создания рипа

Exact Audio Copy V1.0 beta 6 from 9. April 2015
EAC extraction logfile from 27. June 2015, 17:09
Emma Christian / Beneath The Twilight
Used drive : ATAPI iHAS124 W Adapter: 1 ID: 0
Read mode : SecureUtilize accurate stream : YesDefeat audio cache : YesMake use of C2 pointers : No
Read offset correction : 48Overread into Lead-In and Lead-Out : NoFill up missing offset samples with silence : YesDelete leading and trailing silent blocks : NoNull samples used in CRC calculations : YesUsed interface : Native Win32 interface for Win NT & 2000Gap handling : Appended to previous track
Used output format : Internal WAV RoutinesSample format : 44.100 Hz; 16 Bit; Stereo
TOC of the extracted CD
Track | Start | Length | Start sector | End sector --------------------------------------------------------- 1 | 0:00.32 | 2:00.35 | 32 | 9066 2 | 2:00.67 | 3:48.50 | 9067 | 26216 3 | 5:49.42 | 1:47.18 | 26217 | 34259 4 | 7:36.60 | 1:06.20 | 34260 | 39229 5 | 8:43.05 | 1:52.15 | 39230 | 47644 6 | 10:35.20 | 1:24.57 | 47645 | 54001 7 | 12:00.02 | 2:40.48 | 54002 | 66049 8 | 14:40.50 | 1:24.17 | 66050 | 72366 9 | 16:04.67 | 5:19.58 | 72367 | 96349 10 | 21:24.50 | 2:22.22 | 96350 | 107021 11 | 23:46.72 | 3:46.45 | 107022 | 124016 12 | 27:33.42 | 1:47.60 | 124017 | 132101 13 | 29:21.27 | 1:31.63 | 132102 | 138989 14 | 30:53.15 | 2:07.45 | 138990 | 148559 15 | 33:00.60 | 2:04.60 | 148560 | 157919 16 | 35:05.45 | 2:32.17 | 157920 | 169336 17 | 37:37.62 | 5:06.30 | 169337 | 192316 18 | 42:44.17 | 1:31.55 | 192317 | 199196
Track 1
Filename C:\Users\Akhtis\Documents\EAC\01 - Mannanan.wav
Pre-gap length 0:00:02.32
Peak level 36.8 % Extraction speed 1.6 X Track quality 99.9 % Test CRC 8FF774DE Copy CRC 8FF774DE Accurately ripped (confidence 1) [43963CBF] (AR v1) Copy OK
Track 2
Filename C:\Users\Akhtis\Documents\EAC\02 - Three Eeasteyryn Boghtey.wav
Pre-gap length 0:00:04.10
Peak level 34.2 % Extraction speed 2.4 X Track quality 100.0 % Test CRC 8F2B411A Copy CRC 8F2B411A Accurately ripped (confidence 1) [F10CE4E8] (AR v1) Copy OK
Track 3
Filename C:\Users\Akhtis\Documents\EAC\03 - Gheay Jeh'n Aer.wav
Pre-gap length 0:00:03.45
Peak level 44.9 % Extraction speed 1.8 X Track quality 99.9 % Test CRC 886F6AE6 Copy CRC 886F6AE6 Accurately ripped (confidence 1) [14217147] (AR v1) Copy OK
Track 4
Filename C:\Users\Akhtis\Documents\EAC\04 - Berree Dhone.wav
Pre-gap length 0:00:04.45
Peak level 46.7 % Extraction speed 2.0 X Track quality 100.0 % Test CRC D50A6440 Copy CRC D50A6440 Accurately ripped (confidence 1) [D32DE1DC] (AR v1) Copy OK
Track 5
Filename C:\Users\Akhtis\Documents\EAC\05 - Ushag Veg Ruy.wav
Pre-gap length 0:00:05.44
Peak level 38.5 % Extraction speed 1.9 X Track quality 99.9 % Test CRC BE6D02F8 Copy CRC BE6D02F8 Accurately ripped (confidence 1) [91FA04EB] (AR v1) Copy OK
Track 6
Filename C:\Users\Akhtis\Documents\EAC\06 - Arrane Ben-Vlieaun.wav
Pre-gap length 0:00:02.68
Peak level 39.1 % Extraction speed 2.3 X Track quality 100.0 % Test CRC 89EDDA12 Copy CRC 89EDDA12 Accurately ripped (confidence 1) [D1193D56] (AR v1) Copy OK
Track 7
Filename C:\Users\Akhtis\Documents\EAC\07 - Ny Kirree Fo Sniaghtey.wav
Pre-gap length 0:00:04.37
Peak level 36.6 % Extraction speed 2.3 X Track quality 99.9 % Test CRC 9C4C8F97 Copy CRC 9C4C8F97 Accurately ripped (confidence 1) [46AF1342] (AR v1) Copy OK
Track 8
Filename C:\Users\Akhtis\Documents\EAC\08 - O Kirree T'ou Goll Dy Faagail Mee.wav
Pre-gap length 0:00:03.25
Peak level 26.7 % Extraction speed 2.4 X Track quality 100.0 % Test CRC 407D51B8 Copy CRC 407D51B8 Accurately ripped (confidence 1) [F2CB1467] (AR v1) Copy OK
Track 9
Filename C:\Users\Akhtis\Documents\EAC\09 - Oikan Ayns Bethlehem.wav
Pre-gap length 0:00:03.67
Peak level 48.1 % Extraction speed 3.3 X Track quality 100.0 % Test CRC E5A7C5DD Copy CRC E5A7C5DD Accurately ripped (confidence 1) [F7C2EF3A] (AR v1) Copy OK
Track 10
Filename C:\Users\Akhtis\Documents\EAC\10 - Shooyl Inneenyn.wav
Pre-gap length 0:00:05.38
Peak level 46.1 % Extraction speed 3.1 X Track quality 100.0 % Test CRC CC831C96 Copy CRC CC831C96 Accurately ripped (confidence 1) [03A79734] (AR v1) Copy OK
Track 11
Filename C:\Users\Akhtis\Documents\EAC\11 - Lament of the Duchess of Gloucester.wav
Pre-gap length 0:00:02.62
Peak level 22.0 % Extraction speed 3.5 X Track quality 100.0 % Test CRC 567F1A6B Copy CRC 567F1A6B Accurately ripped (confidence 1) [A53D44EF] (AR v1) Copy OK
Track 12
Filename C:\Users\Akhtis\Documents\EAC\12 - Vreeshey, Vreeshey.wav
Pre-gap length 0:00:03.27
Peak level 29.5 % Extraction speed 3.1 X Track quality 100.0 % Test CRC DAB81141 Copy CRC DAB81141 Accurately ripped (confidence 1) [F3C51A30] (AR v1) Copy OK
Track 13
Filename C:\Users\Akhtis\Documents\EAC\13 - Mylecharaine's March.wav
Pre-gap length 0:00:03.70
Peak level 27.2 % Extraction speed 3.1 X Track quality 100.0 % Test CRC 53DE7337 Copy CRC 53DE7337 Accurately ripped (confidence 1) [1BD92EFE] (AR v1) Copy OK
Track 14
Filename C:\Users\Akhtis\Documents\EAC\14 - O My Graih.wav
Pre-gap length 0:00:02.70
Peak level 19.2 % Extraction speed 3.4 X Track quality 100.0 % Test CRC 277B940F Copy CRC 277B940F Accurately ripped (confidence 1) [4911D6BE] (AR v1) Copy OK
Track 15
Filename C:\Users\Akhtis\Documents\EAC\15 - Padjer Colum Keeilley.wav
Pre-gap length 0:00:04.68
Peak level 40.1 % Extraction speed 2.8 X Track quality 99.9 % Test CRC 1FD1C175 Copy CRC 1FD1C175 Accurately ripped (confidence 1) [254195C3] (AR v1) Copy OK
Track 16
Filename C:\Users\Akhtis\Documents\EAC\16 - Arrane Saveenagh.wav
Pre-gap length 0:00:02.73
Peak level 30.4 % Extraction speed 3.7 X Track quality 100.0 % Test CRC 5305B826 Copy CRC 5305B826 Accurately ripped (confidence 1) [D80696B4] (AR v1) Copy OK
Track 17
Filename C:\Users\Akhtis\Documents\EAC\17 - Arrane Ghelbee.wav
Pre-gap length 0:00:04.07
Peak level 35.5 % Extraction speed 3.8 X Track quality 99.9 % Test CRC D9D77E1F Copy CRC D9D77E1F Accurately ripped (confidence 1) [EC55E4D6] (AR v1) Copy OK
Track 18
Filename C:\Users\Akhtis\Documents\EAC\18 - Arrane Oie Vie.wav
Pre-gap length 0:00:04.55
Peak level 33.9 % Extraction speed 3.5 X Track quality 100.0 % Test CRC 9ABBB7A2 Copy CRC 9ABBB7A2 Accurately ripped (confidence 1) [945EC7F9] (AR v1) Copy OK
All tracks accurately ripped
No errors occurred
End of status report
---- CUETools DB Plugin V2.1.6
[CTDB TOCID: OllhctT5VPnXXYCLDptOVqOsWLs-] foundSubmit result: OllhctT5VPnXXYCLDptOVqOsWLs- has been confirmedTrack | CTDB Status 1 | (1/1) Accurately ripped 2 | (1/1) Accurately ripped 3 | (1/1) Accurately ripped 4 | (1/1) Accurately ripped 5 | (1/1) Accurately ripped 6 | (1/1) Accurately ripped 7 | (1/1) Accurately ripped 8 | (1/1) Accurately ripped 9 | (1/1) Accurately ripped 10 | (1/1) Accurately ripped 11 | (1/1) Accurately ripped 12 | (1/1) Accurately ripped 13 | (1/1) Accurately ripped 14 | (1/1) Accurately ripped 15 | (1/1) Accurately ripped 16 | (1/1) Accurately ripped 17 | (1/1) Accurately ripped 18 | (1/1) Accurately ripped
==== Log checksum F136077ADF728683BF2E7A42D2282B27D932F018AD2EFDDDA87E5B7B6061EFED ====

Содержание индексной карты (.CUE)

REM GENRE FolkREM DISCID 080A5F12REM COMMENT "ExactAudioCopy v1.0b6"CATALOG 0000000000000PERFORMER "Emma Christian"TITLE "Beneath The Twilight"FILE "01 - Mannanan.wav" WAVE TRACK 01 AUDIO TITLE "Mannanan" PERFORMER "Emma Christian" PREGAP 00:00:32 INDEX 01 00:00:00 TRACK 02 AUDIO TITLE "Three Eeasteyryn Boghtey" PERFORMER "Emma Christian" INDEX 00 01:56:25FILE "02 - Three Eeasteyryn Boghtey.wav" WAVE INDEX 01 00:00:00 TRACK 03 AUDIO TITLE "Gheay Jeh'n Aer" PERFORMER "Emma Christian" INDEX 00 03:45:05FILE "03 - Gheay Jeh'n Aer.wav" WAVE INDEX 01 00:00:00 TRACK 04 AUDIO TITLE "Berree Dhone" PERFORMER "Emma Christian" INDEX 00 01:42:48FILE "04 - Berree Dhone.wav" WAVE INDEX 01 00:00:00 TRACK 05 AUDIO TITLE "Ushag Veg Ruy" PERFORMER "Emma Christian" INDEX 00 01:00:51FILE "05 - Ushag Veg Ruy.wav" WAVE INDEX 01 00:00:00 TRACK 06 AUDIO TITLE "Arrane Ben-Vlieaun" PERFORMER "Emma Christian" INDEX 00 01:49:22FILE "06 - Arrane Ben-Vlieaun.wav" WAVE INDEX 01 00:00:00 TRACK 07 AUDIO TITLE "Ny Kirree Fo Sniaghtey" PERFORMER "Emma Christian" INDEX 00 01:20:20FILE "07 - Ny Kirree Fo Sniaghtey.wav" WAVE INDEX 01 00:00:00 TRACK 08 AUDIO TITLE "O Kirree T'ou Goll Dy Faagail Mee" PERFORMER "Emma Christian" INDEX 00 02:37:23FILE "08 - O Kirree T'ou Goll Dy Faagail Mee.wav" WAVE INDEX 01 00:00:00 TRACK 09 AUDIO TITLE "Oikan Ayns Bethlehem" PERFORMER "Emma Christian" INDEX 00 01:20:25FILE "09 - Oikan Ayns Bethlehem.wav" WAVE INDEX 01 00:00:00 TRACK 10 AUDIO TITLE "Shooyl Inneenyn" PERFORMER "Emma Christian" INDEX 00 05:14:20FILE "10 - Shooyl Inneenyn.wav" WAVE INDEX 01 00:00:00 TRACK 11 AUDIO TITLE "Lament of the Duchess of Gloucester" PERFORMER "Emma Christian" INDEX 00 02:19:35FILE "11 - Lament of the Duchess of Gloucester.wav" WAVE INDEX 01 00:00:00 TRACK 12 AUDIO TITLE "Vreeshey, Vreeshey" PERFORMER "Emma Christian" INDEX 00 03:43:18FILE "12 - Vreeshey, Vreeshey.wav" WAVE INDEX 01 00:00:00 TRACK 13 AUDIO TITLE "Mylecharaine's March" PERFORMER "Emma Christian" INDEX 00 01:43:65FILE "13 - Mylecharaine's March.wav" WAVE INDEX 01 00:00:00 TRACK 14 AUDIO TITLE "O My Graih" PERFORMER "Emma Christian" INDEX 00 01:28:68FILE "14 - O My Graih.wav" WAVE INDEX 01 00:00:00 TRACK 15 AUDIO TITLE "Padjer Colum Keeilley" PERFORMER "Emma Christian" INDEX 00 02:02:52FILE "15 - Padjer Colum Keeilley.wav" WAVE INDEX 01 00:00:00 TRACK 16 AUDIO TITLE "Arrane Saveenagh" PERFORMER "Emma Christian" INDEX 00 02:01:62FILE "16 - Arrane Saveenagh.wav" WAVE INDEX 01 00:00:00 TRACK 17 AUDIO TITLE "Arrane Ghelbee" PERFORMER "Emma Christian" INDEX 00 02:28:10FILE "17 - Arrane Ghelbee.wav" WAVE INDEX 01 00:00:00 TRACK 18 AUDIO TITLE "Arrane Oie Vie" PERFORMER "Emma Christian" INDEX 00 05:01:50FILE "18 - Arrane Oie Vie.wav" WAVE INDEX 01 00:00:00
[doutdess.site].t87166.torrent
Torrent: Registered [ 2015-11-01 18:25 ] · B71C49311DB9F0AD3D2E949391B8A2D4D60E101C

28 KB

Status: checked
Completed: 1 times
Size: 169 MB
(Celtic, Manx) [CD] Emma Christian - Beneath The Twilight - 1994, FLAC (tracks+.cue), lossless скачать торрент бесплатно и без регистрации

[Profile] [PM]
Display posts:    

Current time is: 27-Sep 03:58

All times are UTC + 3



You cannot post new topics in this forum
You cannot reply to topics in this forum
You cannot edit your posts in this forum
You cannot delete your posts in this forum
You cannot vote in polls in this forum
You cannot attach files in this forum
You can download files in this forum