Reply to topic
DL-List and Torrent activity [Update пиров]
Size:  515 MB   |    Registered:  4 years 10 months   |    Completed:  0 times
Seeders:  503  [  0 KB/s  ]   Leechers:  20  [  0 KB/s  ]  
 
     
 
 
Author Message

RelizMAN ®

11

Post 06-Nov-2015 19:35

[Quote]

Gipsy Kings / King Size Hits - The Very Best 1982-1992
Жанр: Flamenco
Носитель: CD
Страна-производитель диска (релиза): Europe
Год издания: 1993
Аудиокодек: FLAC (*.flac)
Тип рипа: tracks+.cue
Битрейт аудио: lossless
Продолжительность: 1:17:26.
Источник (релизер): clustert
Наличие сканов в содержимом раздачи: да
Треклист:
01. Bamboleo [0:03:27.00]
02. Bem, Bem Maria [0:03:05.20]
03. Un Amor [0:03:38.55]
04. Inspiration [0:03:43.38]
05. A Mi Manera [0:03:56.50]
06. Caminando Por La Calle [0:04:20.00]
07. Viento Del Arena [0:05:30.15]
08. Mosaique [0:03:42.42]
09. Camino [0:05:05.35]
10. Passion [0:03:03.45]
11. Soy [0:03:12.30]
12. Volare [0:03:39.33]
13. Vamos A Bailar [0:03:54.65]
14. Baila Me [0:03:49.60]
15. Habla Me [0:04:06.25]
16. La Grimas [0:02:58.25]
17. Oy [0:04:51.37]
18. Mi Vida [0:03:52.68]
19. El Mauro [0:04:41.65]
20. Trista Pena [0:02:45.55]

Лог создания рипа

Exact Audio Copy V1.0 beta 3 from 29. August 2011
Отчёт EAC об извлечении, выполненном 1. ноября 2015, 14:15
Gypsy Kings / King Size Hits
Дисковод: ASUS DRW-1814BLT Adapter: 4 ID: 0
Режим чтения : ДостоверностьИспользование точного потока : ДаОтключение кэша аудио : ДаИспользование указателей C2 : Нет
Коррекция смещения при чтении : 6Способность читать области Lead-in и Lead-out : НетЗаполнение пропущенных сэмплов тишиной : ДаУдаление блоков с тишиной в начале и конце : НетПри вычислениях CRC использовались нулевые сэмплы : ДаИнтерфейс : Встроенный Win32-интерфейс для Win NT/2000Обработка зазоров : Добавлено к предыдущему треку
Выходной формат : Пользовательский кодировщикВыбранный битрейт : 128 kBit/sКачество : ВысокийДобавление ID3-тега : НетУтилита сжатия : C:\Program Files\Exact Audio Copy\Flac\flac.exeДополнительные параметры : -V -8 -T "Genre=%genre%" -T "Artist=%artist%" -T "Title=%title%" -T "Album=%albumtitle%" -T "Date=%year%" -T "Tracknumber=%tracknr%" -T "Comment=EAC1.0b2 FLAC -8" %source%
TOC извлечённого CD
Трек | Старт | Длительность | Начальный сектор | Конечный сектор --------------------------------------------------------------------- 1 | 0:00.00 | 3:27.00 | 0 | 15524 2 | 3:27.00 | 3:05.20 | 15525 | 29419 3 | 6:32.20 | 3:38.55 | 29420 | 45824 4 | 10:11.00 | 3:43.38 | 45825 | 62587 5 | 13:54.38 | 3:56.50 | 62588 | 80337 6 | 17:51.13 | 4:20.00 | 80338 | 99837 7 | 22:11.13 | 5:30.15 | 99838 | 124602 8 | 27:41.28 | 3:42.42 | 124603 | 141294 9 | 31:23.70 | 5:05.35 | 141295 | 164204 10 | 36:29.30 | 3:03.45 | 164205 | 177974 11 | 39:33.00 | 3:12.30 | 177975 | 192404 12 | 42:45.30 | 3:39.33 | 192405 | 208862 13 | 46:24.63 | 3:54.65 | 208863 | 226477 14 | 50:19.53 | 3:49.60 | 226478 | 243712 15 | 54:09.38 | 4:06.25 | 243713 | 262187 16 | 58:15.63 | 2:58.25 | 262188 | 275562 17 | 61:14.13 | 4:51.37 | 275563 | 297424 18 | 66:05.50 | 3:52.68 | 297425 | 314892 19 | 69:58.43 | 4:41.65 | 314893 | 336032 20 | 74:40.33 | 2:45.55 | 336033 | 348462
Трек 1
Имя файла R:\Раздача 55\Gipsy Kings - 1993 - King Size Hits - The Very Best 1982-1992\01 Bamboleo.wav
Длина предзазора 0:00:02.00
Пиковый уровень 100.0 % Скорость извлечения 3.8 X Качество трека 100.0 % CRC теста 7AF12173 CRC копии 7AF12173 Точное извлечение (достоверность 1) [D53BEDFF] (AR v2) Копирование... OK
Трек 2
Имя файла R:\Раздача 55\Gipsy Kings - 1993 - King Size Hits - The Very Best 1982-1992\02 Bem, Bem Maria.wav
Длина предзазора 0:00:03.37
Пиковый уровень 94.0 % Скорость извлечения 2.6 X Качество трека 99.9 % CRC теста 718073FC CRC копии 718073FC Точное извлечение (достоверность 1) [05A70C5E] (AR v2) Копирование... OK
Трек 3
Имя файла R:\Раздача 55\Gipsy Kings - 1993 - King Size Hits - The Very Best 1982-1992\03 Un Amor.wav
Длина предзазора 0:00:01.07
Пиковый уровень 88.8 % Скорость извлечения 4.4 X Качество трека 100.0 % CRC теста 9AA6D8C0 CRC копии 9AA6D8C0 Точное извлечение (достоверность 1) [D1E59606] (AR v2) Копирование... OK
Трек 4
Имя файла R:\Раздача 55\Gipsy Kings - 1993 - King Size Hits - The Very Best 1982-1992\04 Inspiration.wav
Длина предзазора 0:00:01.50
Пиковый уровень 89.4 % Скорость извлечения 4.7 X Качество трека 100.0 % CRC теста 29E07B67 CRC копии 29E07B67 Точное извлечение (достоверность 1) [1EB769C6] (AR v2) Копирование... OK
Трек 5
Имя файла R:\Раздача 55\Gipsy Kings - 1993 - King Size Hits - The Very Best 1982-1992\05 A Mi Manera.wav
Длина предзазора 0:00:02.00
Пиковый уровень 96.2 % Скорость извлечения 5.0 X Качество трека 100.0 % CRC теста 5FD30602 CRC копии 5FD30602 Точное извлечение (достоверность 1) [346D224C] (AR v2) Копирование... OK
Трек 6
Имя файла R:\Раздача 55\Gipsy Kings - 1993 - King Size Hits - The Very Best 1982-1992\06 Caminando Por La Calle.wav
Длина предзазора 0:00:05.70
Пиковый уровень 100.0 % Скорость извлечения 5.4 X Качество трека 100.0 % CRC теста FCC90696 CRC копии FCC90696 Точное извлечение (достоверность 1) [81BE6815] (AR v2) Копирование... OK
Трек 7
Имя файла R:\Раздача 55\Gipsy Kings - 1993 - King Size Hits - The Very Best 1982-1992\07 Viento Del Arena.wav
Длина предзазора 0:00:02.43
Пиковый уровень 100.0 % Скорость извлечения 5.9 X Качество трека 100.0 % CRC теста C20676FD CRC копии C20676FD Точное извлечение (достоверность 1) [2E9B5F83] (AR v2) Копирование... OK
Трек 8
Имя файла R:\Раздача 55\Gipsy Kings - 1993 - King Size Hits - The Very Best 1982-1992\08 Mosaique.wav
Длина предзазора 0:00:02.28
Пиковый уровень 100.0 % Скорость извлечения 5.9 X Качество трека 100.0 % CRC теста 42C44FF2 CRC копии 42C44FF2 Точное извлечение (достоверность 1) [B856DA2D] (AR v2) Копирование... OK
Трек 9
Имя файла R:\Раздача 55\Gipsy Kings - 1993 - King Size Hits - The Very Best 1982-1992\09 Camino.wav
Длина предзазора 0:00:02.20
Пиковый уровень 100.0 % Скорость извлечения 6.4 X Качество трека 100.0 % CRC теста 4A276BB8 CRC копии 4A276BB8 Точное извлечение (достоверность 1) [B053A48E] (AR v2) Копирование... OK
Трек 10
Имя файла R:\Раздача 55\Gipsy Kings - 1993 - King Size Hits - The Very Best 1982-1992\10 Passion.wav
Длина предзазора 0:00:02.12
Пиковый уровень 100.0 % Скорость извлечения 4.0 X Качество трека 99.9 % CRC теста 0AD3BFCA CRC копии 0AD3BFCA Точное извлечение (достоверность 1) [5A233222] (AR v2) Копирование... OK
Трек 11
Имя файла R:\Раздача 55\Gipsy Kings - 1993 - King Size Hits - The Very Best 1982-1992\11 Soy.wav
Длина предзазора 0:00:02.50
Пиковый уровень 100.0 % Скорость извлечения 6.4 X Качество трека 100.0 % CRC теста F03C44E7 CRC копии F03C44E7 Точное извлечение (достоверность 1) [5BEB2983] (AR v2) Копирование... OK
Трек 12
Имя файла R:\Раздача 55\Gipsy Kings - 1993 - King Size Hits - The Very Best 1982-1992\12 Volare.wav
Длина предзазора 0:00:02.17
Пиковый уровень 95.6 % Скорость извлечения 4.4 X Качество трека 99.9 % CRC теста 626EB757 CRC копии 626EB757 Точное извлечение (достоверность 1) [A300B47F] (AR v2) Копирование... OK
Трек 13
Имя файла R:\Раздача 55\Gipsy Kings - 1993 - King Size Hits - The Very Best 1982-1992\13 Vamos A Bailar.wav
Длина предзазора 0:00:01.05
Пиковый уровень 100.0 % Скорость извлечения 6.9 X Качество трека 100.0 % CRC теста 48BA1ECF CRC копии 48BA1ECF Точное извлечение (достоверность 1) [713C90D0] (AR v2) Копирование... OK
Трек 14
Имя файла R:\Раздача 55\Gipsy Kings - 1993 - King Size Hits - The Very Best 1982-1992\14 Baila Me.wav
Длина предзазора 0:00:05.65
Пиковый уровень 100.0 % Скорость извлечения 7.1 X Качество трека 100.0 % CRC теста DD250A3F CRC копии DD250A3F Точное извлечение (достоверность 1) [B35BCA27] (AR v2) Копирование... OK
Трек 15
Имя файла R:\Раздача 55\Gipsy Kings - 1993 - King Size Hits - The Very Best 1982-1992\15 Habla Me.wav
Длина предзазора 0:00:05.38
Пиковый уровень 78.6 % Скорость извлечения 4.9 X Качество трека 99.9 % CRC теста 960B6FA4 CRC копии 960B6FA4 Точное извлечение (достоверность 1) [73B2951C] (AR v2) Копирование... OK
Трек 16
Имя файла R:\Раздача 55\Gipsy Kings - 1993 - King Size Hits - The Very Best 1982-1992\16 La Grimas.wav
Длина предзазора 0:00:01.00
Пиковый уровень 68.2 % Скорость извлечения 7.1 X Качество трека 100.0 % CRC теста BD4FD65C CRC копии BD4FD65C Точное извлечение (достоверность 1) [C3CBE779] (AR v2) Копирование... OK
Трек 17
Имя файла R:\Раздача 55\Gipsy Kings - 1993 - King Size Hits - The Very Best 1982-1992\17 Oy.wav
Длина предзазора 0:00:02.25
Пиковый уровень 90.2 % Скорость извлечения 5.4 X Качество трека 99.9 % CRC теста FADDAB8C CRC копии FADDAB8C Точное извлечение (достоверность 1) [E7DE7F6F] (AR v2) Копирование... OK
Трек 18
Имя файла R:\Раздача 55\Gipsy Kings - 1993 - King Size Hits - The Very Best 1982-1992\18 Mi Vida.wav
Длина предзазора 0:00:01.12
Пиковый уровень 100.0 % Скорость извлечения 5.8 X Качество трека 100.0 % CRC теста 9D783406 CRC копии 9D783406 Точное извлечение (достоверность 1) [10788B1B] (AR v2) Копирование... OK
Трек 19
Имя файла R:\Раздача 55\Gipsy Kings - 1993 - King Size Hits - The Very Best 1982-1992\19 El Mauro.wav
Длина предзазора 0:00:00.18
Пиковый уровень 100.0 % Скорость извлечения 3.8 X Качество трека 99.9 % CRC теста 69777F30 CRC копии 69777F30 Точное извлечение (достоверность 1) [DB0F92E3] (AR v2) Копирование... OK
Трек 20
Имя файла R:\Раздача 55\Gipsy Kings - 1993 - King Size Hits - The Very Best 1982-1992\20 Trista Pena.wav
Длина предзазора 0:00:03.03
Пиковый уровень 100.0 % Скорость извлечения 1.5 X Качество трека 99.7 % CRC теста 5327ECAA CRC копии 5327ECAA Точное извлечение (достоверность 1) [91CE15CB] (AR v2) Копирование... OK
Все треки извлечены точно
Ошибок не произошло
Конец отчёта
==== Контрольная сумма отчёта 4742EF29E9C717762E7A1FC2FA106AFD5DBC781C3B2C5E5479BDC0CF1764B72F ====

Содержание индексной карты (.CUE)

REM GENRE LatinREM DATE 1993REM DISCID 2C122614REM COMMENT "ExactAudioCopy v1.0b3"PERFORMER "Gypsy Kings"TITLE "King Size Hits"FILE "01 Bamboleo.wav" WAVE TRACK 01 AUDIO TITLE "Bamboleo" PERFORMER "Gypsy Kings" INDEX 01 00:00:00 TRACK 02 AUDIO TITLE "Bem, Bem Maria" PERFORMER "Gypsy Kings" INDEX 00 03:23:38FILE "02 Bem, Bem Maria.wav" WAVE INDEX 01 00:00:00 TRACK 03 AUDIO TITLE "Un Amor" PERFORMER "Gypsy Kings" INDEX 00 03:04:13FILE "03 Un Amor.wav" WAVE INDEX 01 00:00:00 TRACK 04 AUDIO TITLE "Inspiration" PERFORMER "Gypsy Kings" INDEX 00 03:37:05FILE "04 Inspiration.wav" WAVE INDEX 01 00:00:00 TRACK 05 AUDIO TITLE "A Mi Manera" PERFORMER "Gypsy Kings" INDEX 00 03:41:38FILE "05 A Mi Manera.wav" WAVE INDEX 01 00:00:00 TRACK 06 AUDIO TITLE "Caminando Por La Calle" PERFORMER "Gypsy Kings" INDEX 00 03:50:55FILE "06 Caminando Por La Calle.wav" WAVE INDEX 01 00:00:00 TRACK 07 AUDIO TITLE "Viento Del Arena" PERFORMER "Gypsy Kings" INDEX 00 04:17:32FILE "07 Viento Del Arena.wav" WAVE INDEX 01 00:00:00 TRACK 08 AUDIO TITLE "Mosaique" PERFORMER "Gypsy Kings" INDEX 00 05:27:62FILE "08 Mosaique.wav" WAVE INDEX 01 00:00:00 TRACK 09 AUDIO TITLE "Camino" PERFORMER "Gypsy Kings" INDEX 00 03:40:22FILE "09 Camino.wav" WAVE INDEX 01 00:00:00 TRACK 10 AUDIO TITLE "Passion" PERFORMER "Gypsy Kings" INDEX 00 05:03:23FILE "10 Passion.wav" WAVE INDEX 01 00:00:00 TRACK 11 AUDIO TITLE "Soy" PERFORMER "Gypsy Kings" INDEX 00 03:00:70FILE "11 Soy.wav" WAVE INDEX 01 00:00:00 TRACK 12 AUDIO TITLE "Volare" PERFORMER "Gypsy Kings" INDEX 00 03:10:13FILE "12 Volare.wav" WAVE INDEX 01 00:00:00 TRACK 13 AUDIO TITLE "Vamos A Bailar" PERFORMER "Gypsy Kings" INDEX 00 03:38:28FILE "13 Vamos A Bailar.wav" WAVE INDEX 01 00:00:00 TRACK 14 AUDIO TITLE "Baila Me" PERFORMER "Gypsy Kings" INDEX 00 03:49:00FILE "14 Baila Me.wav" WAVE INDEX 01 00:00:00 TRACK 15 AUDIO TITLE "Habla Me" PERFORMER "Gypsy Kings" INDEX 00 03:44:22FILE "15 Habla Me.wav" WAVE INDEX 01 00:00:00 TRACK 16 AUDIO TITLE "La Grimas" PERFORMER "Gypsy Kings" INDEX 00 04:05:25FILE "16 La Grimas.wav" WAVE INDEX 01 00:00:00 TRACK 17 AUDIO TITLE "Oy" PERFORMER "Gypsy Kings" INDEX 00 02:56:00FILE "17 Oy.wav" WAVE INDEX 01 00:00:00 TRACK 18 AUDIO TITLE "Mi Vida" PERFORMER "Gypsy Kings" INDEX 00 04:50:25FILE "18 Mi Vida.wav" WAVE INDEX 01 00:00:00 TRACK 19 AUDIO TITLE "El Mauro" PERFORMER "Gypsy Kings" INDEX 00 03:52:50FILE "19 El Mauro.wav" WAVE INDEX 01 00:00:00 TRACK 20 AUDIO TITLE "Trista Pena" PERFORMER "Gypsy Kings" INDEX 00 04:38:62FILE "20 Trista Pena.wav" WAVE INDEX 01 00:00:00
[doutdess.site].t88093.torrent
Torrent: Registered [ 2015-11-06 19:35 ] · AE20D36B28693FC3CCAD2EF6F6E5065CA6797A0C

12 KB

Status: checked
Completed: 0 times
Size: 515 MB
(Flamenco) [CD] Gipsy Kings - King Size Hits - The Very Best 1982-1992 - 1993, FLAC (tracks+.cue), lossless скачать торрент бесплатно и без регистрации

[Profile] [PM]
Forum Topic Author Size
Фламенко и акустическая гитара lossy (flamenco) Antonio Rey - Dos partes de mi / Two parts of me - 2017, MP3, 320 kbps Vi$itReal 94 MB
Фламенко и акустическая гитара lossy (Flamenco) Armik - Pacifica - 2018, MP3, 320 kbps Vi$itReal 115 MB
Фламенко и акустическая гитара lossy (Flamenco) Armik - Solo Guitar Collection - 2016, MP3, 192 kbps Vi$itReal 87 MB
Звуки природы (Flamenco) Beyond the memory (tribute to Paco de Lucia) - 2016, MP3, 320 kbps Vi$itReal 110 MB
Фламенко и акустическая гитара lossy (Flamenco) Camaron de la Isla - Camaron de la Isla - 1969-2008, MP3, 320 kbps Vi$itReal 1.83 GB
Фламенко и акустическая гитара lossy (Flamenco) El Sebas de la Calle - Mi Verdad - 2018, MP3, 320 kbps Vi$itReal 98 MB
Фламенко и акустическая гитара lossless (Flamenco) Estrella Morente - дискография 2001-2014, FLAC (tracks+.cue), lossless RelizMAN 1.61 GB
Фламенко и акустическая гитара lossless (Flamenco) Gipsy Kings - Baila Me (Single) - 1991, APE (image+.cue) lossless RelizMAN 66 MB
Display posts:    

Current time is: 20-Sep 17:35

All times are UTC + 3



You cannot post new topics in this forum
You cannot reply to topics in this forum
You cannot edit your posts in this forum
You cannot delete your posts in this forum
You cannot vote in polls in this forum
You cannot attach files in this forum
You can download files in this forum