Reply to topic
DL-List and Torrent activity [Update пиров]
Size:  1.68 GB   |    Registered:  4 years 10 months   |    Completed:  0 times
Seeders:  519  [  0 KB/s  ]   Leechers:  17  [  0 KB/s  ]  
 
     
 
 
Author Message

Vi$itReal ®

12

Post 08-Nov-2015 15:55

[Quote]

Русь былинная - Казачий ансамбль Атаман
Страна: Российская Федерация
Жанр: Folk
Продолжительность: 01:34:05
Год выпуска: 2013 г.
Описание: Императорский ордена св. Кирилла казачий ансамбль "Атаман"
За несколько веков своего существования казачество не однажды доказало свою природную мощь, проявившуюся как в сокрушающем врагов боевом духе, так и в созидающем творческом потенциале, сформировавшим уникальную культуру.
Одна из задач коллектива – не дать разорваться нити, связывающей культуру прошлого и современности.
«Атаман» идет своим путем как в репертуаре, так и в исполнительской манере. Особенность ансамбля – в органичном синтезе традиционной казачьей песни с современной музыкальной культурой.В репертуар ансамбля «Атаман» входят старинные казачьи песни, духовные церковные песнопения, патриотические песни современных композиторов.
Концерт состоит из двух отделений:
Первое отделение - это музыкальные произведения, отражающие исторические вехи становления Руси Великой, как в старинных былинах, так и в произведениях наших современников (Г.Лупандиной, Н.Емелина, В.Захарченко, Г.Пономаренко, Г.Заволокина).
Второе отделение придется по духу всем истинным почитателям казачьей культуры.
Сайт ансамбля "Атаман" http://ataman-za-veru.spb.ru/

Треклист

1-е отделение:
1. Тропарь иконе Божией Матери Ченстоховская
2. Княжий остров (муз. Н. Емелина)
3. Светло-светлая (сл. древняя рукопись "Слово о гибели Земли Русской" муз. М. Трошина)
4. Илья Муромец (сл. и муз. Н. Емелина)
5. Ой, веди нас, княже! (сл. и муз. Г. Лупандиной)
6. Тропы – духовный стих (обр. Б. Калинчева)
7. Будем жить (сл. и муз.: Н. Емелин)
8. Рось-река (сл. и муз.: Н. Емелин)
9. Северный ветер (сл. и муз.: Н. Емелин)
10. Грянул колокол (сл.: С. Красиков, муз.: Г. Заволокин)
11. Поле Куликово (сл.: иеромонах Роман, муз.: В. Захарченко)
12. Полюшко (сл.: Л. Книппер, муз.: В. Гусев)
2-е отделение:
1. Казачий край (сл. и муз.: А. Заволокина)
2. Гендер (сл. и муз.: народные)
3. Не для меня (сл. и муз.: народные)
4. Витрэ буйный (укр.) (сл.: Т. Шевченко, муз.: В. Захарченко)
5. Вниз по Волге – реке (сл. и муз.: народные)
6. Риди-дай (укр.) (сл. и муз.: народные)
7. Ой, мий мылый варэнычков хоче (укр.) (сл. и муз.: народные)
8. Стога (сл.: А. Толстой, муз.: В. Захарченко)
9. Я лечу над Россией (сл.: О. Левицкий, муз.: Г. Пономаренко)
10. Ясный сокол (сл.: А. Шаганов, муз.: И. Матвиенко)
11. Роспрягайте, хлопци, коней! (укр.) (сл. и муз.: народные)
12. Спролягала путь-дорожка (сл. и муз.: народные)
13. Прощание славянки (сл.: А. Мингалев, муз.: В. Агапкин)
Доп. информация: Запись потока *.ts с наземного цифрового телеканала "Беларусь 3", ремукс в *.mkv программой VideoReDo.
Мои раздачи:
Избранные:
1) Я - гражданин Республики Беларусь. Архитектурные и художественные шедевры Беларуси [2008, RUS]
2) Государственная политика [Документальный цикл, TVRip, 2010]
3) Беларусь. Взгляд извне [2005, документальный сериал, TVRip]
4) Трилогия: Белая Русь, Чарующая Беларусь, Путешествие из Беларуси в Россию [2010-2011 г., Документальный, DVD5]
5) Правда о западной «демократии» и белорусском «тоталитаризме» [Беларусь 2011, Документальное расследование]
6) Задорнов в Беларуси. Беларусь - это значительно улучшенный Советский Союз [2010-2011 г., Интервью, TVRip]
7) [Журнал] Экономика Беларуси (16 номеров) [2007-2010, PDF, RUS]
8) Армия - Журнал Вооруженных сил республики Беларусь. (81 номер) [1996-2010, PDF, RUS]
9) Страна Моя, Беларусь! Заставка телеканал СТВ Минск. Белоруссия, Мир, Несвиж и др. zweizwei [2010, рекламный ролик, заставка, HD-Video]
10) Радзивиллы Несвижские владения Костел Божьего тела [2011 г., хроникально-документальный, TVRip]
11) Полёты на воздушном шаре. Новогрудок. Беларусь. zweizwei / Belarus Novogrudok [2010, HD-Video]
12) Полёты на воздушном шаре / Беларусь, Белоруссия, Гродно, Святск. zweizwei [2009, HD-Video]
13) Вид Гродно с высоты полета (Беларусь)/Выгляд Гродна з вышыні палёту паветранага шара [222]
14) Анархия Прямое действие. Беларусь [2011, документальный фильм, TVRip]
15) Психология девиации (АТН, Беларусь ТВ) [2010, Информационно-аналитические и общественно-политическиепередачи, TVRip]
16) Боль моя - Чернобыль (Беларусь, Коллектив Беларусь ТВ) [2011, Документлный, TVRip]
17) Попов хутор и его обитатели Русс ТВ [2011, Документальный, DVD5]
и сотни других...Источник: собственный рип
Качество: DVB-AVC
Контейнер: MKV
Видео кодек: H.264
Аудио кодек: MP2
Видео: MPEG4 Video (H264) 720x576 (49:36) 25fps, 2 248 Kbps
Аудио: MPEG Audio 48000Hz stereo 256kbps

MediaInfo

GeneralUnique ID : 297519816350814595273345997288304971738 (0xDFD43B7A5CF31DAA673F578A642E8FDA)Complete name : D:\Новая земля 2\Концерты\Атаман\Русь былинная - Казачий ансамбль Атаман (2013)\Русь былинная - Казачий ансамбль Атаман (2013).mkvFormat : MatroskaFormat version : Version 2File size : 1.68 GiBDuration : 1h 34mnOverall bit rate mode : VariableOverall bit rate : 2 555 KbpsWriting application : Lavf52.64.2Writing library : Lavf52.64.2
VideoID : 1Format : AVCFormat/Info : Advanced Video CodecFormat profile : [email protected] settings, CABAC : YesFormat settings, ReFrames : 3 framesFormat settings, GOP : M=2, N=33Codec ID : V_MPEG4/ISO/AVCDuration : 1h 34mnBit rate mode : VariableBit rate : 2 248 KbpsMaximum bit rate : 18.0 MbpsWidth : 720 pixelsHeight : 576 pixelsDisplay aspect ratio : 4:3Frame rate mode : ConstantFrame rate : 25.000 fpsStandard : PALColor space : YUVChroma subsampling : 4:2:0Bit depth : 8 bitsScan type : ProgressiveBits/(Pixel*Frame) : 0.217Stream size : 1.48 GiB (88%)Default : YesForced : NoColor range : Limited
AudioID : 2Format : MPEG AudioFormat version : Version 1Format profile : Layer 2Codec ID : A_MPEG/L2Codec ID/Hint : MP2Duration : 1h 34mnBit rate mode : ConstantBit rate : 256 KbpsChannel(s) : 2 channelsSampling rate : 48.0 KHzCompression mode : LossyStream size : 172 MiB (10%)Default : YesForced : No
[doutdess.site].t88393.torrent
Torrent: Registered [ 2015-11-08 15:55 ] · 5488990BD8E18AEB641E8116627C416B6CCCF76C

17 KB

Status: checked
Completed: 0 times
Size: 1.68 GB
Русь былинная - Казачий ансамбль Атаман [2013 г., Folk, DVB-AVC] скачать торрент бесплатно и без регистрации

[Profile] [PM]
Display posts:    

Current time is: 25-Sep 21:55

All times are UTC + 3



You cannot post new topics in this forum
You cannot reply to topics in this forum
You cannot edit your posts in this forum
You cannot delete your posts in this forum
You cannot vote in polls in this forum
You cannot attach files in this forum
You can download files in this forum