Reply to topic
DL-List and Torrent activity [Update пиров]
Size:  3.89 GB   |    Registered:  4 years 10 months   |    Completed:  0 times
Seeders:  804  [  0 KB/s  ]   Leechers:  17  [  0 KB/s  ]  
 
     
 
 
Author Message

Vi$itReal ®

12

Post 08-Nov-2015 23:30

[Quote]

Бавария 2013: Аугсбург, Нюрнберг и еще немного...
Дата/Год выпуска: 2014
Страна: Россия
Жанр: Документальный любительский
Продолжительность: 00:48:13, 00:43:32
Перевод: Не требуется
Оригинальная аудиодорожка: нет
Режиссер: Сергей Харченко
Описание: Вторая поездка в Баварию. Если первая была посвящена Мюнхену, то эта - Аугсбург, Нюрнберг, Регенсбург, Линдерхофф, Обераммергау и даже немножко Парижа. Посмотрел на трекере - вроде как нет материала по этим (пока двум) городам, надеюсь, кому-то будет интересно.
качество: DVDRip
формат: AVI
Видео: DivX 5, 1280x720, 16:9, 5 999 Kbps, 25.000 fps
Аудио: mp3, 192 kbps, 48.0 kHz, 2 channels

Список выпусков/серий

1. Аугсбург
2. Нюрнберг
3. Регенсбург (в проекте)
4. Линдерхофф и Обераммергау (в проекте)
5. Париж (в проекте)
Другие мои фильмы:
Прекрасная Бавария
Неизвестный Таиланд, или страна миллиона Будд
Амстердам. G-Forсe 2010 и не только

MediaInfo

GeneralComplete name : D:\Кино для Интернет\2013 Бавария\Аугсбург 2013.aviFormat : DivXFormat/Info : Hack of AVIFile size : 2.09 GiBDuration : 48mn 13sOverall bit rate : 6 201 Kbps
VideoID : 0Format : MPEG-4 VisualFormat settings, BVOP : NoFormat settings, QPel : NoFormat settings, GMC : No warppointsFormat settings, Matrix : Default (H.263)Codec ID : DX50Codec ID/Hint : DivX 5Duration : 48mn 13sBit rate : 5 999 KbpsWidth : 1 280 pixelsHeight : 720 pixelsDisplay aspect ratio : 16:9Frame rate : 25.000 fpsColor space : YUVChroma subsampling : 4:2:0Bit depth : 8 bitsScan type : ProgressiveCompression mode : LossyBits/(Pixel*Frame) : 0.260Stream size : 2.02 GiB (97%)Title : VideoWriting library : DivX 6.6.1.4
AudioID : 1Format : MPEG AudioFormat version : Version 1Format profile : Layer 3Mode : Joint stereoCodec ID : 55Codec ID/Hint : MP3Duration : 48mn 13sBit rate mode : ConstantBit rate : 192 KbpsChannel count : 2 channelsSampling rate : 48.0 KHzCompression mode : LossyStream size : 66.2 MiB (3%)Alignment : Split accross interleavesInterleave, duration : 40 ms (1.00 video frame)Interleave, preload duration : 500 msTitle : AudioWriting library : LAME3.96

Скриншоты - Аугсбург

Скриншоты - Нюрнберг

[doutdess.site].t88497.torrent
Torrent: Registered [ 2015-11-08 23:30 ] · BB48E259C6CED4922A42BB030C137330F62649A4

20 KB

Status: checked
Completed: 0 times
Size: 3.89 GB
Бавария 2013: Аугсбург, Нюрнберг и еще немного... (Сергей Харченко) [2014, Документальный, DVDRip] скачать торрент бесплатно и без регистрации

[Profile] [PM]
Forum Topic Author Size
Военное дело Schultz H. / Шульц Х. - Die Bayerischen- Sächsischen- und Würtembergischen Kavallerie-Regimenter 1913-1914 / Баварские, саксонские и вюртембергские кавалерийские полки 1913-1914 гг. [1992,... Vi$itReal 67 MB
Кулинария Weilacher G., Weilacher P. / Вейлахер Г., Вейлахер П. - Culinaria Bavarica: Das große Handbuch bayerischer Spezialitäten / Кулинария баварика: Большое руководство по баварской национально... Vi$itReal 81 MB
Экономика и бизнес Гейл Лакман Макдауэлл, Джеки Баваро - Cracking the PM Interview / Карьера менеджера IT-проекта. Как устроиться на работу в ведущую технологическую компанию [2014, PDF, RUS] Vi$itReal 3 MB
Опера DVD и HD Видео Франсис Пуленк - Диалоги кармелиток (Баварская государственная опера; Черняков, Нагано) / Francis Poulenc - Dialogues des carmalites (Bayerische Staatsoper; Tcherniakov, Nagano; Vernhes, Gritton,... Vi$itReal 41.39 GB
Спортивные программы и телепередачи HD видео Футбол. Кубок Германии 2019-2020. Финал. Байер 04 (Леверкузен) - Бавария (Мюнхен) [04.07] (2020) IPTV 1080р Vi$itReal 3.67 GB
Спортивные программы и телепередачи HD видео Футбол. Лига Чемпионов 2019-20. Группа B. 3-й тур. Олимпиакос (Греция) - Бавария (Германия) [22.10] (2019) IPTV 1080р Vi$itReal 3.12 GB
Спортивные программы и телепередачи HD видео Футбол. Лига Чемпионов 2019-20. Группа B. 4-й тур. Бавария (Германия) - Олимпиакос (Греция) [06.11] (2019) HDTV 1080i Vi$itReal 5.24 GB
Спортивные программы и телепередачи Футбол. Лига Чемпионов 2019-20. Группа B. 4-й тур. Бавария (Германия) - Олимпиакос (Греция) [06.11] (2019) HDTVRip RelizMAN 1.42 GB
Display posts:    

Current time is: 20-Sep 14:02

All times are UTC + 3



You cannot post new topics in this forum
You cannot reply to topics in this forum
You cannot edit your posts in this forum
You cannot delete your posts in this forum
You cannot vote in polls in this forum
You cannot attach files in this forum
You can download files in this forum